5n电影网

 找回密码
 立即注册
打印 上一主题 下一主题

[BT下载]神奇动物:格林德沃之罪 2018.1080p.3D.BluRay.Half-SBS.x26...

[复制链接]
跳转到指定楼层
楼主



译  名 神奇动物:格林德沃之罪 / Fantastic Beasts and Where to Find Them 2 / 怪兽与葛林戴华德之罪(港) / 怪兽与葛林戴华德的罪行(台) / 神奇动物2 / 神奇动物在哪里2 / 神奇动物在哪里2:格林德沃之罪
片  名 Fantastic Beasts: The Crimes of Grindelwald
年  代 2018
产  地 美国 / 英国
类  别 奇幻 / 冒险
语  言 英语
上映日期 2018-11-16(中国大陆/美国)
IMDb评分 6.8/10 from 118011 users
片  长 134分钟
导  演 大卫·叶茨 David Yates
编  剧 J·K·罗琳 J.K. Rowling
主  演 埃迪·雷德梅恩 Eddie Redmayne
      凯瑟琳·沃特斯顿 Katherine Waterston
      约翰尼·德普 Johnny Depp
      裘德·洛 Jude Law
      埃兹拉·米勒 Ezra Miller
      丹·福勒 Dan Fogler
      艾莉森·萨多尔 Alison Sudol
      佐伊·克罗维兹 Zo? Kravitz
      卡勒姆·特纳 Callum Turner
      金秀贤 Soo-hyun Kim
      威廉·纳迪兰 William Nadylam
      凯文·格思里 Kevin Guthrie
      卡门·艾乔戈 Carmen Ejogo
      沃尔夫·罗特 Wolf Roth
      德里克·里德尔 Derek Riddell
      科内尔·约翰 Cornell John
      英格瓦·埃盖特·西古德松 Ingvar Eggert Siguresson
      波佩·科比-特曲 Poppy Corby-Tuech
      西蒙·米考克 Simon Meacock
      大卫·樱井 David Sakurai
      维多利亚·耶茨 Victoria Yeates
      奥拉维尔·达里·奥拉夫松 ólafur Darri ólafsson
      大卫·威尔莫特 David Wilmot
      艾德·高根 Ed Gaughan
      奥莉维亚·波皮卡 Olivia Popica
      Alfie Simmons
      菲奥娜·格拉斯科特 Fiona Glascott
      杰米·坎贝尔·鲍尔 Jamie Campbell Bower
      托比·瑞格波 Toby Regbo
      约书亚·谢伊 Joshua Shea
      布隆蒂斯·佐杜洛夫斯基 Brontis Jodorowsky
      杰西卡·威廉姆斯 Jessica Williams
      欧文·富尔 Olwen Fouere
      休·夸希 Hugh Quarshie
      塔希尔·布尔汉 Tahir Burhan
      迈克尔·科布 Michael Cobb
      萨比恩·克洛森 Sabine Crossen
      亚历珊德拉·福特 Alexandra Ford
      肖恩·吉斯灵厄姆 Sean Gislingham
      通恰伊·古?#38382;?Tuncay Gunes
      迈克尔·海登 Michael Haydon
      露丝·霍洛克斯 Ruth Horrocks
      泰·赫尔利 Ty Hurley
      纳西尔·贾玛 Nasir Jama
      卡米尔·雷?#33258;?#26031;基 Kamil Lemieszewski
      迪诺·布加迪 Deano Bugatti




标  签 魔法世界 | 魔幻 | 魔法 | 英国 | 奇幻 | 2018 | 美国 | 冒险


简  介  


  虽然纽特(埃迪·雷德梅恩 Eddie Redmayne 饰)协助美国魔法部将邪恶的黑巫师格林德沃(约翰尼·德普 Johnny Depp 饰)捉拿归?#31119;?#20294;最终格林德沃还是逃脱了禁锢,他来到了法国巴黎,一是为?#24605;?#32467;信徒掀起革命,二十为?#25628;?#25214;同样藏匿在这里的克雷登斯(埃兹拉·米勒 Ezra Miller 饰),?#32435;?#22312;克雷登斯身上的默默然是帮助格林德沃?#36842;?#37326;心的不可或缺的道具。
格林德沃的潜逃在整个魔法世界里都掀起了轩然大波,一时间草木皆兵。邓布利多(裘德·洛 Jude Law 饰)秘密的找到了纽特,希望他能够?#24052;?#24052;黎,先格林德沃一步找到克雷登斯。和纽特一起踏上巴黎之旅?#27169;?#26159;麻鸡雅各布(丹·福格勒 Dan Fogler 饰),他此行的目?#27169;?#26159;要找回先前因为吵架而来到巴黎投奔姐姐蒂娜(凯瑟琳·沃特森 Katherine Waterston 饰)的恋?#19997;?#22958;(艾莉森·苏朵儿 Alison Sudol 饰)。


获奖情况  


  第72届英国电影学?#33322;?2019)
  电影奖 最佳?#24080;?#25351;导(提名) 斯图尔特·克莱格 / 安娜·平诺克
  电影奖 最佳特殊视觉效果(提名)


  第23届美国?#24080;?#25351;导工会奖(2019)
  电影奖 最佳幻想电影?#24080;?#25351;导(提名) 斯图尔特·克莱格


  第17届美国视觉效果协会奖(2019)
  最佳真人电影模拟动画效果(提名)


  第23届金卫星奖(2019)
  电影部门 最佳视觉效果(提名)
  电影部门 最佳美术指导(提名)
  电影部门 最佳服装设计(提名)


  第4届豆瓣电影年度榜单(2017)
  最值得期待的外语电影(提名)




Video
ID : 1
Format : AVC
Format/Info : Advanced Video Codec
Format profile :
Format settings : CABAC / 3 Ref Frames
Format settings, CABAC : Yes
Format settings, ReFrames : 3 frames
Codec ID : V_MPEG4/ISO/AVC
Duration : 2 h 13 min
Bit rate : 15.5 Mb/s
Width : 1 920 pixels
Height : 1 080 pixels
Display aspect ratio : 16:9
Frame rate mode : Constant
Frame rate : 23.976 (24000/1001) FPS
Color space : YUV
Chroma subsampling : 4:2:0
Bit depth : 8 bits
Scan type : Progressive
Bits/(Pixel*Frame) : 0.312
Stream size : 14.4 GiB (59%)
Title : Fantastic.Beasts.The.Crimes.of.Grindelwald.2018.1080p.3D.BluRay.Half-SBS.x264.DTS-HD.MA.7.1-FGT
Writing library : x264 core 148
Encoding settings : cabac=1 / ref=3 / deblock=1:-1:-1 / analyse=0x3:0 / me=hex / subme=5 / psy=1 / psy_rd=1.00:0.00 / mixed_ref=0 / me_range=16 / chroma_me=1 / trellis=1 / 8x8dct=1 / cqm=0 / deadzone=21,11 / fast_pskip=0 / chroma_qp_offset=0 / threads=24 / lookahead_threads=6 / sliced_threads=0 / nr=0 / decimate=1 / interlaced=0 / bluray_compat=0 / constrained_intra=0 / bframes=2 / b_pyramid=0 / b_adapt=1 / b_bias=0 / direct=1 / weightb=0 / open_gop=0 / weightp=0 / keyint=24 / keyint_min=2 / scenecut=40 / intra_refresh=0 / rc=abr / mbtree=0 / bitrate=15500 / ratetol=1.0 / qcomp=0.60 / qpmin=0 / qpmax=69 / qpstep=4 / ip_ratio=1.40 / pb_ratio=1.30 / aq=1:1.00
Default : Yes
Forced : No
Color range : Limited
Color primaries : BT.709
Transfer characteristics : BT.709
Matrix coefficients : BT.709

Audio #1
ID : 2
Format : DTS XLL
Format/Info : Digital Theater Systems
Commercial name : DTS-HD Master Audio
Codec ID : A_DTS
Duration : 2 h 13 min
Bit rate mode : Variable
Bit rate : 3 538 kb/s
Channel(s) : 8 channels
Channel layout : C L R LFE Lb Rb Lss Rss
Sampling rate : 48.0 kHz
Frame rate : 93.750 FPS (512 SPF)
Bit depth : 24 bits
Compression mode : Lossless
Stream size : 3.31 GiB (14%)
Title : Fantastic.Beasts.The.Crimes.of.Grindelwald.2018.1080p.3D.BluRay.Half-SBS.x264.DTS-HD.MA.7.1-FGT
Language : English
Default : Yes
Forced : No

Audio #2
ID : 3
Format : AC-3
Format/Info : Audio Coding 3
Commercial name : Dolby Digital
Codec ID : A_AC3
Duration : 2 h 13 min
Bit rate mode : Constant
Bit rate : 448 kb/s
Channel(s) : 6 channels
Channel layout : L R C LFE Ls Rs
Sampling rate : 48.0 kHz
Frame rate : 31.250 FPS (1536 SPF)
Bit depth : 16 bits
Compression mode : Lossy
Stream size : 429 MiB (2%)
Title : Fantastic.Beasts.The.Crimes.of.Grindelwald.2018.1080p.3D.BluRay.Half-SBS.x264.DTS-HD.MA.7.1-FGT
Language : English
Service kind : Complete Main
Default : No
Forced : No

Audio #3
ID : 4
Format : AC-3
Format/Info : Audio Coding 3
Commercial name : Dolby Digital
Codec ID : A_AC3
Duration : 2 h 13 min
Bit rate mode : Constant
Bit rate : 448 kb/s
Channel(s) : 6 channels
Channel layout : L R C LFE Ls Rs
Sampling rate : 48.0 kHz
Frame rate : 31.250 FPS (1536 SPF)
Bit depth : 16 bits
Compression mode : Lossy
Stream size : 429 MiB (2%)
Title : Fantastic.Beasts.The.Crimes.of.Grindelwald.2018.1080p.3D.BluRay.Half-SBS.x264.DTS-HD.MA.7.1-FGT
Language : French
Service kind : Complete Main
Default : No
Forced : No

Audio #4
ID : 5
Format : DTS XLL
Format/Info : Digital Theater Systems
Commercial name : DTS-HD Master Audio
Codec ID : A_DTS
Duration : 2 h 13 min
Bit rate mode : Variable
Bit rate : 2 176 kb/s
Channel(s) : 6 channels
Channel layout : C L R Ls Rs LFE
Sampling rate : 48.0 kHz
Frame rate : 93.750 FPS (512 SPF)
Bit depth : 16 bits
Compression mode : Lossless
Stream size : 2.03 GiB (8%)
Title : Fantastic.Beasts.The.Crimes.of.Grindelwald.2018.1080p.3D.BluRay.Half-SBS.x264.DTS-HD.MA.7.1-FGT
Language : German
Default : No
Forced : No

Audio #5
ID : 6
Format : AC-3
Format/Info : Audio Coding 3
Commercial name : Dolby Digital
Codec ID : A_AC3
Duration : 2 h 13 min
Bit rate mode : Constant
Bit rate : 192 kb/s
Channel(s) : 2 channels
Channel layout : L R
Sampling rate : 48.0 kHz
Frame rate : 31.250 FPS (1536 SPF)
Bit depth : 16 bits
Compression mode : Lossy
Stream size : 184 MiB (1%)
Title : Fantastic.Beasts.The.Crimes.of.Grindelwald.2018.1080p.3D.BluRay.Half-SBS.x264.DTS-HD.MA.7.1-FGT
Language : German
Service kind : Complete Main
Default : No
Forced : No

Audio #6
ID : 7
Format : AC-3
Format/Info : Audio Coding 3
Commercial name : Dolby Digital
Codec ID : A_AC3
Duration : 2 h 13 min
Bit rate mode : Constant
Bit rate : 448 kb/s
Channel(s) : 6 channels
Channel layout : L R C LFE Ls Rs
Sampling rate : 48.0 kHz
Frame rate : 31.250 FPS (1536 SPF)
Bit depth : 16 bits
Compression mode : Lossy
Stream size : 429 MiB (2%)
Title : Fantastic.Beasts.The.Crimes.of.Grindelwald.2018.1080p.3D.BluRay.Half-SBS.x264.DTS-HD.MA.7.1-FGT
Language : Spanish
Service kind : Complete Main
Default : No
Forced : No

Audio #7
ID : 8
Format : AC-3
Format/Info : Audio Coding 3
Commercial name : Dolby Digital
Codec ID : A_AC3
Duration : 2 h 13 min
Bit rate mode : Constant
Bit rate : 448 kb/s
Channel(s) : 6 channels
Channel layout : L R C LFE Ls Rs
Sampling rate : 48.0 kHz
Frame rate : 31.250 FPS (1536 SPF)
Bit depth : 16 bits
Compression mode : Lossy
Stream size : 429 MiB (2%)
Title : Fantastic.Beasts.The.Crimes.of.Grindelwald.2018.1080p.3D.BluRay.Half-SBS.x264.DTS-HD.MA.7.1-FGT
Language : Portuguese
Service kind : Complete Main
Default : No
Forced : No

Audio #8
ID : 9
Format : AC-3
Format/Info : Audio Coding 3
Commercial name : Dolby Digital
Codec ID : A_AC3
Duration : 2 h 13 min
Bit rate mode : Constant
Bit rate : 448 kb/s
Channel(s) : 6 channels
Channel layout : L R C LFE Ls Rs
Sampling rate : 48.0 kHz
Frame rate : 31.250 FPS (1536 SPF)
Bit depth : 16 bits
Compression mode : Lossy
Stream size : 429 MiB (2%)
Title : Fantastic.Beasts.The.Crimes.of.Grindelwald.2018.1080p.3D.BluRay.Half-SBS.x264.DTS-HD.MA.7.1-FGT
Language : Hungarian
Service kind : Complete Main
Default : No
Forced : No




Fantastic.Beasts.The.Crimes.of.Grindelwald.2018.1080p.3D.BluRay.Half-SBS.x264.DT.torrent (61.53 KB)

回复

使用道具 举报

您需要登录后才可以回帖 登录 | 立即注册

本版积分规则

5n电影网  |网站地图

本网站所有资源来自网络,如无意中?#22336;?#20102;您的权益,请发邮件至 [email protected],立即清除相关链接

GMT+8, 2019-8-18 17:43 , Processed in 0.072714 second(s), 28 queries .

Powered by Discuz! X3.2

© 2001-2013 Comsenz Inc.

快速回复 返回顶部 返回列表
在线直播斯诺克
篮球即时比分 南粤36选7近30期奖结果 福彩3d乐彩网开奖走势图表 打麻将偷牌最简单视频 福建31选7开奖走势图 pokerstar线上娱乐21点 甘肃快三开奖结果 360江苏老快三开奖结果 山西快乐10分视频开奖 排列五开奖号码 广西快三开奖结果今天开奖结果查 22选5走势图 中原风采 3d贵州 北京十一选五玩法规则 黑龙江十一选五走势图爱乐彩